Реклама
Каталог
  iPhone
  Филми
      DVD-R
      XviD
      HDTV
      Сериали
      Формула 1
  Музика
      Песен
      Албум
      Клипове
  Игри
      PC
      Конзоли
  Програми
      Windows
      Linux
      MacOS
      PDA
  Книги
  XXX
  Други
  Всички
Форум
Теми:2,223
Отговори:257,778
Теми/Отговори:1 %
Торент детайли
Файл Фатална свалка (2020) / Fatale - BRRip
СВАЛИ Фатална свалка (2020) / Fatale - BRRip
Реклама
Инфо хeш ed5243b2a8f9473c566c254b92f54d0d4ff6591b
Описание

## Заглавие на Английски: Fatale

## Заглавие на Български: Фатална свалка

## Релийз: BRRip

## Жанр: Трилър

## Режисьор: Дион Тейлър

## В ролите: Хилари Суонк, Майк Колтър, Майкъл Ийли, Кали Хоук, Дани Пино, Сам Дейли, Дамарис Луис

## Държава:: САЩ

## Година: 2020

## Дължина: 01:42:00

## Видео поток: ID : 1
Format : AVC
Format/Info : Advanced Video Codec
Format profile : High@L3
Format settings : CABAC / 4 Ref Frames
Format settings, CABAC : Yes
Format settings, Reference frames : 4 frames
Codec ID : V_MPEG4/ISO/AVC
Duration : 1 h 42 min
Bit rate : 1 500 kb/s
Width : 720 pixels
Height : 300 pixels
Display aspect ratio : 2.40:1
Frame rate mode : Constant
Frame rate : 23.976 (24000/1001) FPS
Color space : YUV
Chroma subsampling : 4:2:0
Bit depth : 8 bits
Scan type : Progressive
Bits/(Pixel*Frame) : 0.290
Stream size : 1.07 GiB (80%)
Writing library : x264 core 159


## Аудио поток: ID : 2
Format : AC-3
Format/Info : Audio Coding 3
Commercial name : Dolby Digital
Codec ID : A_AC3
Duration : 1 h 42 min
Bit rate mode : Constant
Bit rate : 384 kb/s
Channel(s) : 6 channels
Channel layout : L R C LFE Ls Rs
Sampling rate : 48.0 kHz
Frame rate : 31.250 FPS (1536 SPF)
Compression mode : Lossy
Delay relative to video : -5 ms
Stream size : 282 MiB (20%)
Language : English
Service kind : Complete Main
Default : Yes
Forced : No


## Субтитри: от subsunacs.net

## Адрес на субтитрите (URL): https://subsunacs.net/subtitles/Fatale-140887/

## Резюме: Жена детектив примамва нищо неподозиращ мъж в опасно разследване на сложно убийство.

## Друга информация:


Субтитри : Благодарение на Маркидова subsunacs.net



upload pictures online


upload pictures online

IMDb : Линк към IMDb

ТРЕЙЛЪР : Линк към YOUTUBE


Категория Movies XviD
Оценка:
  • Currently 0.00/5
Rating: 0.0 out of 5.0 (Votes: 0) For your upload!

Размер 1.35 GB
Покажи / скрий файловете
2 files
Добавен 18/01/2021 - 18:11
Последно активен 25/02/2021 - 17:30
Свален 226 Път(и)
Пиъри Сийдъри: 10, Лийчъри: 0 = 10 Пиъри


Без коментар...