Реклама
Каталог
  iPhone
  Филми
      DVD-R
      XviD
      HDTV
      Сериали
      Формула 1
  Музика
      Песен
      Албум
      Клипове
  Игри
      PC
      Конзоли
  Програми
      Windows
      Linux
      MacOS
      PDA
  Книги
  XXX
  Други
  Всички
Форум
Теми:2,223
Отговори:257,785
Теми/Отговори:1 %
Торент детайли
Файл Енола Холмс (2020) / Enola Holmes - BRRip
СВАЛИ Енола Холмс (2020) / Enola Holmes - BRRip
Реклама
Инфо хeш 5c05498707415348d159261e3822b684fc88270b
Описание




' ## Заглавие на Английски: Enola Holmes

## Заглавие на Български: Енола Холмс

## Релийз: BRRip

## Жанр: Драма; Криминален; Приключенски

## Режисьор: Хари Брадбиер

## В ролите: Мили Боби Браун, Хенри Кавил, Сам Клафлин, Хелена Бонъм Картър, Фиона Шоу

## Държава:: Великобритания

## Година: 2020

## Дължина: 02:03:00

## Видео поток: ID : 1
Format : AVC
Format/Info : Advanced Video Codec
Format profile : High@L4.1
Format settings : CABAC / 4 Ref Frames
Format settings, CABAC : Yes
Format settings, Reference frames : 4 frames
Codec ID : V_MPEG4/ISO/AVC
Duration : 2 h 3 min
Bit rate : 1 200 kb/s
Width : 720 pixels
Height : 302 pixels
Display aspect ratio : 2.40:1
Frame rate mode : Constant
Frame rate : 24.000 FPS
Color space : YUV
Chroma subsampling : 4:2:0
Bit depth : 8 bits
Scan type : Progressive
Bits/(Pixel*Frame) : 0.230
Stream size : 1.01 GiB (74%)
Writing library : x264 core 142


## Аудио поток: ID : 2
Format : AC-3
Format/Info : Audio Coding 3
Commercial name : Dolby Digital
Codec ID : A_AC3
Duration : 2 h 3 min
Bit rate mode : Constant
Bit rate : 384 kb/s
Channel(s) : 6 channels
Channel layout : L R C LFE Ls Rs
Sampling rate : 48.0 kHz
Frame rate : 31.250 FPS (1536 SPF)
Compression mode : Lossy
Delay relative to video : -5 ms
Stream size : 340 MiB (24%)
Title : Surround
Language : English
Service kind : Complete Main
Default : Yes
Forced : No


## Субтитри: от subs.sab.bz

## Адрес на субтитрите (URL): http://subs.sab.bz/index.php?s=b8846553826f6374cfa8b2d76783b49d&act=details&sid=86337

## Линк към IMDB: http://www.imdb.com/title/tt7846844/

## Резюме: Когато майка й (Хелена Бонан Картър) изчезва безследно, Енола е решена да разгадае мистерията и да я открие. Шерлок и другият й голям брат Майкрофт (Сам Клафлин) обаче смятат, че за 16-годишната им сестра е по-добре да отиде в училище, а те да се заемат със случая. Това ще затрудни Енола до някаква степен, но със сигурност няма да я спре.

## Друга информация: Субтитри : Благодарение на Наталия Георгиева subs.sab.bz

IMDb : Линк към IMDb

ТРЕЙЛЪР : Линк към YOUTUBE




photo sharing


photo sharing


Категория Movies XviD
Оценка:
  • Currently 0.00/5
Rating: 0.0 out of 5.0 (Votes: 0) For your upload!

Размер 1.37 GB
Покажи / скрий файловете
2 files
Добавен 18/01/2021 - 18:45
Последно активен 03/03/2021 - 21:21
Свален 125 Път(и)
Пиъри Сийдъри: 8, Лийчъри: 0 = 8 Пиъри


Без коментар...