Реклама
Каталог
  iPhone
  Филми
      DVD-R
      XviD
      HDTV
      Сериали
      Формула 1
  Музика
      Песен
      Албум
      Клипове
  Игри
      PC
      Конзоли
  Програми
      Windows
      Linux
      MacOS
      PDA
  Книги
  XXX
  Други
  Всички
Форум
Теми:2,223
Отговори:257,781
Теми/Отговори:1 %
Торент детайли
Файл Скайлайнс (2020) / Skylines - HDTV-Rip
СВАЛИ Скайлайнс (2020) / Skylines - HDTV-Rip
Реклама
Инфо хeш 3bf3a6547703d680e83f3f68a2621a223c9aad20
Описание

## Заглавие на Английски: Skylines

## Заглавие на Български: Скайлайнс

## Релийз: HDTV-Rip

## Жанр: Екшън; Приключенски; Фантастика

## Режисьор: Лиам О'Донъл

## В ролите: Линдзи Морган, Рона Митра, Джеймс Космо, Александър Сидиг, Даниел Бернхард, Яян Рухиан, Джонатан Хауърд, Джереми Фитджералд, Понг Джанг, Ча-Лий Йон

## Държава:: Франция

## Година: 2020

## Дължина: 01:53:00

## Видео поток: ID : 1
Format : AVC
Format/Info : Advanced Video Codec
Format profile : High@L3
Format settings : CABAC / 4 Ref Frames
Format settings, CABAC : Yes
Format settings, Reference frames : 4 frames
Codec ID : V_MPEG4/ISO/AVC
Duration : 1 h 53 min
Bit rate : 1 325 kb/s
Width : 720 pixels
Height : 304 pixels
Display aspect ratio : 2.40:1
Original display aspect ratio : 2.40:1
Frame rate mode : Constant
Frame rate : 23.976 (24000/1001) FPS
Color space : YUV
Chroma subsampling : 4:2:0
Bit depth : 8 bits
Scan type : Progressive
Bits/(Pixel*Frame) : 0.252
Stream size : 1.02 GiB (77%)
Writing library : x264 core 159


## Аудио поток: ID : 2
Format : AC-3
Format/Info : Audio Coding 3
Commercial name : Dolby Digital
Codec ID : A_AC3
Duration : 1 h 53 min
Bit rate mode : Constant
Bit rate : 384 kb/s
Channel(s) : 6 channels
Channel layout : L R C LFE Ls Rs
Sampling rate : 48.0 kHz
Frame rate : 31.250 FPS (1536 SPF)
Compression mode : Lossy
Stream size : 311 MiB (23%)
Language : English
Service kind : Complete Main
Default : Yes
Forced : No


## Субтитри: в торента

## Линк към IMDB: http://www.imdb.com/title/tt9387250

## Резюме: Капитан Роуз Корли ръководи екип от елитни наемници, на извънземна мисия, за да спаси онова, което е останало от човечеството.

## Друга информация: .

IMDb : Линк към IMDb

ТРЕЙЛЪР : Линк към YOUTUBE




СУБТИТРИТЕ СА БЛАГОДАРЕНИЕ НА :


Категория Movies XviD
Оценка:
  • Currently 4.64/5
Rating: 4.6 out of 5.0 (Votes: 11) For your upload!

Размер 1.33 GB
Покажи / скрий файловете
3 files
Добавен 31/12/2020 - 15:49
Последно активен 28/02/2021 - 03:48
Свален 1435 Път(и)
Пиъри Сийдъри: 36, Лийчъри: 1 = 37 Пиъри


Без коментар...