Реклама
Каталог
  iPhone
  Филми
      DVD-R
      XviD
      HDTV
      Сериали
      Формула 1
  Музика
      Песен
      Албум
      Клипове
  Игри
      PC
      Конзоли
  Програми
      Windows
      Linux
      MacOS
      PDA
  Книги
  XXX
  Други
  Всички
Форум
Теми:2,223
Отговори:257,781
Теми/Отговори:1 %
Торент детайли
Файл Офицер и Андроид (2021) / Outside the Wire - BRRip
СВАЛИ Офицер и Андроид (2021) / Outside the Wire - BRRip
Реклама
Инфо хeш 3369c429d3fdb57feb2fdbee3b9d008a6aecad28
Описание

## Заглавие на Английски: Outside the Wire

## Заглавие на Български: Офицер и Андроид

## Релийз: BRRip

## Жанр: Екшън; Приключенски; Фентъзи

## Режисьор: Микаел Хафстрьом

## В ролите: Антъни Маки, Емили Бичъм, Майкъл Кели, Кристина Тонтери-Йънг, Дамсън Идрис

## Държава:: САЩ; Друга

## Година: 2021

## Дължина: 01:54:00

## Видео поток: ID : 1
Format : AVC
Format/Info : Advanced Video Codec
Format profile : High@L4.1
Format settings : CABAC / 4 Ref Frames
Format settings, CABAC : Yes
Format settings, Reference frames : 4 frames
Codec ID : V_MPEG4/ISO/AVC
Duration : 1 h 55 min
Bit rate : 1 300 kb/s
Width : 720 pixels
Height : 302 pixels
Display aspect ratio : 2.40:1
Frame rate mode : Constant
Frame rate : 24.000 FPS
Color space : YUV
Chroma subsampling : 4:2:0
Bit depth : 8 bits
Scan type : Progressive
Bits/(Pixel*Frame) : 0.249
Stream size : 1.03 GiB (77%)
Writing library : x264 core


## Аудио поток: ID : 2
Format : AC-3
Format/Info : Audio Coding 3
Commercial name : Dolby Digital
Codec ID : A_AC3
Duration : 1 h 55 min
Bit rate mode : Constant
Bit rate : 384 kb/s
Channel(s) : 6 channels
Channel layout : L R C LFE Ls Rs
Sampling rate : 48.0 kHz
Frame rate : 31.250 FPS (1536 SPF)
Compression mode : Lossy
Delay relative to video : -5 ms
Stream size : 318 MiB (23%)
Title : Surround
Language : English
Service kind : Complete Main
Default : Yes


## Субтитри: в торента

## Резюме: Пилот (Дамсън Идрис) на безпилотен самолет е изпратен в смъртоносна милитаризирана зона, където се оказва, че работи за офицера (Антъни Маки), който е и Андроид. Той е натоварен със задачата да намери специално оборудване, което не трябва да попада в грешните ръце.

## Друга информация:

Субтитри : Благодарение на Ростислав Кирилов yavka.net


IMDb : Линк към IMDb

ТРЕЙЛЪР : Линк към YOUTUBE





Категория Movies XviD
Оценка:
  • Currently 4.43/5
Rating: 4.4 out of 5.0 (Votes: 7) For your upload!

Размер 1.35 GB
Покажи / скрий файловете
2 files
Добавен 16/01/2021 - 02:02
Последно активен 28/02/2021 - 04:16
Свален 1039 Път(и)
Пиъри Сийдъри: 30, Лийчъри: 0 = 30 Пиъри


go6o1973 (SuperUser) 22/01/2021 19:54:51 (5 weeks ago) Редактиране!
SUPER
kvadrad (User) 06/02/2021 16:42:20 (3 weeks ago) Редактиране!
нещо различно medieval.gif
nemo89 (SuperUser) 08/02/2021 09:47:39 (2 weeks ago) Редактиране!
Само негра ....мисля да пропусна !
marianpeev1965 (User) 15/02/2021 10:36:28 (1 week ago) Редактиране!
Няма такъв глупав филм